<?xml version="1.0" standalone="no"?>
<!DOCTYPE svg PUBLIC "-//W3C//DTD SVG 1.1//EN" "http://www.w3.org/Graphics/SVG/1.1/DTD/svg11.dtd" >
<svg xmlns="http://www.w3.org/2000/svg">
<metadata>
This is a custom SVG webfont generated by Font Squirrel.
Copyright   : Created by Sizenko Alexander  2008 Style7 All rights reserved
Designer    : Sizenko Alexander
Foundry     : Created by Sizenko Alexander 
</metadata>
<defs>
<font id="Digital7Mono" horiz-adv-x="968" >
<font-face units-per-em="2048" ascent="1638" descent="-410" />
<missing-glyph horiz-adv-x="558" />
<glyph unicode=" "  horiz-adv-x="558" />
<glyph unicode="&#x09;" horiz-adv-x="558" />
<glyph unicode="&#xa0;" horiz-adv-x="558" />
<glyph unicode="!" horiz-adv-x="335" d="M26 0l15 149h149l-15 -149h-149zM56 298l24 242l123 112l33 -38l-31 -316h-149zM106 801l39 391l71 149q73 -19 84 -94l-52 -521l-41 -37z" />
<glyph unicode="&#x22;" horiz-adv-x="634" d="M130 1043l30 298h149l-30 -298l-82 -75zM430 1044l30 298h149l-30 -298l-82 -74z" />
<glyph unicode="#" horiz-adv-x="1005" d="M78 521l82 75h75l67 -75l-82 -74h-75zM108 817l82 75h74l67 -75l-82 -74h-74zM242 296l11 114l82 74l67 -74l-11 -114l-82 -74zM276 633l7 74l82 75l67 -75l-8 -74l-81 -74zM305 931l12 112l81 74l67 -74l-11 -112l-82 -75zM376 521l82 75h74l68 -75l-82 -74h-75z M406 819l82 75h74l67 -75l-82 -74h-74zM540 298l11 113l82 75l67 -75l-11 -113l-82 -75zM573 633l8 74l82 75l67 -75l-8 -74l-82 -74zM603 931l11 112l82 74l67 -74l-11 -112l-82 -75zM674 519l82 75h74l67 -75l-82 -74h-74zM704 819l82 75h74l67 -75l-82 -74h-74z" />
<glyph unicode="$" d="M35 93l155 56h447l41 -149h-559q-73 19 -84 93zM99 726l48 484l143 -56l-35 -353l-123 -112zM153 1247q26 74 102 94h594q73 -19 84 -94l-155 -55h-482zM168 670l81 75h485l67 -75l-82 -74h-484zM346 -149l10 93h149l-10 -93l-82 -74zM382 205l33 335h149l-33 -335h-149z M441 801l34 335h149l-34 -335h-149zM501 1396l9 93l82 75l67 -75l-9 -93h-149zM674 149l39 391l123 112l33 -38l-52 -521q-26 -74 -102 -93z" />
<glyph unicode="%" horiz-adv-x="1117" d="M108 74l344 578h84l-20 -201l-267 -451q-111 0 -141 74zM125 987l22 223l143 -56l-11 -111l-70 -149q-73 19 -84 93zM151 1247q26 74 102 94h224l-71 -149h-112zM246 894l71 149h111l144 -56q-26 -74 -103 -93h-223zM432 1080l11 112l71 149q73 -19 84 -94l-23 -223z M519 93l23 224l143 -56l-11 -112l-71 -149q-73 19 -84 93zM546 354q26 74 102 93h223l-70 -149h-112zM581 689l20 201l267 451q112 0 141 -75l-344 -577h-84zM640 0l71 149h112l143 -56q-26 -74 -102 -93h-224zM827 186l11 112l71 149q73 -19 83 -93l-22 -224z" />
<glyph unicode="&#x26;" horiz-adv-x="1042" d="M35 93l155 56h596l100 -112l-41 -37h-726q-73 19 -84 93zM39 130l49 484l40 38l101 -112l-35 -354zM168 670l81 75h485l67 -75l-82 -74h-484zM181 801l33 335l143 -56l-20 -205l-123 -112zM218 1173q26 74 102 93h410l-71 -149h-298zM654 -56l1 19h149l-9 -93l-41 -38z M672 875l24 242l71 149q73 -19 84 -93l-37 -372l-41 -38zM683 242l30 298l123 112l33 -38l-42 -428h-93z" />
<glyph unicode="'" horiz-adv-x="335" d="M130 1043l30 298h149l-30 -298l-82 -75z" />
<glyph unicode="(" horiz-adv-x="651" d="M45 186l43 428l40 38l101 -112l-39 -391l-62 -56zM99 726l42 428l103 93l50 -55l-39 -391l-123 -112zM145 74l82 75h205l67 -75l-82 -74h-205zM264 1266l82 75h205l67 -75l-82 -74h-205z" />
<glyph unicode=")" horiz-adv-x="651" d="M34 74l81 75h205l67 -75l-82 -74h-204zM153 1266l82 75h204l67 -75l-82 -74h-204zM357 149l40 391l122 112l34 -38l-43 -428l-102 -93zM423 801l39 391l61 55l84 -93l-43 -428l-41 -37z" />
<glyph unicode="*" horiz-adv-x="800" d="M76 493l39 103l136 74l-121 75l-18 102l106 28l123 -74l15 149l82 74l67 -74l-15 -149l137 74l99 -28l-37 -102l-136 -75l121 -74l17 -103l-105 -28l-122 75l-15 -149l-82 -74l-67 74l15 149l-138 -75z" />
<glyph unicode="+" horiz-adv-x="819" d="M93 670l82 75h168l16 167l82 75l67 -75l-16 -167h167l67 -75l-82 -74h-167l-17 -168l-82 -74l-67 74l17 168h-168z" />
<glyph unicode="," horiz-adv-x="335" d="M11 -149l30 298h149l-30 -298l-82 -74z" />
<glyph unicode="-" horiz-adv-x="819" d="M93 670l82 75h484l67 -75l-82 -74h-484z" />
<glyph unicode="." horiz-adv-x="335" d="M26 0l15 149h149l-15 -149h-149z" />
<glyph unicode="/" d="M34 74l344 578h84l-21 -201l-266 -451q-111 0 -141 74zM506 689l21 201l266 451q112 0 142 -75l-345 -577h-84z" />
<glyph unicode="0" d="M35 93l155 56h447l41 -149h-559q-73 19 -84 93zM39 130l49 484l40 38l101 -112l-35 -354zM99 726l48 484l143 -56l-35 -353l-123 -112zM153 1247q26 74 102 94h557l-71 -149h-445zM674 149l39 391l123 112l33 -38l-52 -521q-26 -74 -102 -93zM739 801l39 391l71 149 q73 -19 84 -94l-52 -521l-41 -37z" />
<glyph unicode="1" horiz-adv-x="335" d="M41 149l39 391l123 112l33 -38l-52 -521q-26 -74 -102 -93zM106 801l39 391l71 149q73 -19 84 -94l-52 -521l-41 -37z" />
<glyph unicode="2" d="M35 93l155 56h503l41 -149h-615q-73 19 -84 93zM39 130l49 484l40 38l101 -112l-35 -354zM153 1247q26 74 102 94h557l-71 -149h-445zM168 670l81 75h485l67 -75l-82 -74h-484zM739 801l39 391l71 149q73 -19 84 -94l-52 -521l-41 -37z" />
<glyph unicode="3" d="M35 93l155 56h447l41 -149h-559q-73 19 -84 93zM153 1247q26 74 102 94h557l-71 -149h-445zM168 670l81 75h485l67 -75l-82 -74h-484zM674 149l39 391l123 112l33 -38l-52 -521q-26 -74 -102 -93zM739 801l39 391l71 149q73 -19 84 -94l-52 -521l-41 -37z" />
<glyph unicode="4" d="M99 726l54 540l143 -56l-41 -409l-123 -112zM168 670l81 75h485l67 -75l-82 -74h-484zM674 149l39 391l123 112l33 -38l-52 -521q-26 -74 -102 -93zM739 801l39 391l71 149q73 -19 84 -94l-52 -521l-41 -37z" />
<glyph unicode="5" d="M35 93l155 56h447l41 -149h-559q-73 19 -84 93zM99 726l48 484l143 -56l-35 -353l-123 -112zM153 1247q26 74 102 94h613l-71 -149h-501zM168 670l81 75h485l67 -75l-82 -74h-484zM674 149l39 391l123 112l33 -38l-52 -521q-26 -74 -102 -93z" />
<glyph unicode="6" d="M35 93l155 56h447l41 -149h-559q-73 19 -84 93zM39 130l49 484l40 38l101 -112l-35 -354zM99 726l48 484l143 -56l-35 -353l-123 -112zM153 1247q26 74 102 94h613l-71 -149h-501zM168 670l81 75h485l67 -75l-82 -74h-484zM674 149l39 391l123 112l33 -38l-52 -521 q-26 -74 -102 -93z" />
<glyph unicode="7" d="M99 726l48 484l143 -56l-35 -353l-123 -112zM153 1247q26 74 102 94h557l-71 -149h-445zM674 149l39 391l123 112l33 -38l-52 -521q-26 -74 -102 -93zM739 801l39 391l71 149q73 -19 84 -94l-52 -521l-41 -37z" />
<glyph unicode="8" d="M35 93l155 56h447l41 -149h-559q-73 19 -84 93zM39 130l49 484l40 38l101 -112l-35 -354zM99 726l48 484l143 -56l-35 -353l-123 -112zM153 1247q26 74 102 94h557l-71 -149h-445zM168 670l81 75h485l67 -75l-82 -74h-484zM674 149l39 391l123 112l33 -38l-52 -521 q-26 -74 -102 -93zM739 801l39 391l71 149q73 -19 84 -94l-52 -521l-41 -37z" />
<glyph unicode="9" d="M35 93l155 56h447l41 -149h-559q-73 19 -84 93zM99 726l48 484l143 -56l-35 -353l-123 -112zM153 1247q26 74 102 94h557l-71 -149h-445zM168 670l81 75h485l67 -75l-82 -74h-484zM674 149l39 391l123 112l33 -38l-52 -521q-26 -74 -102 -93zM739 801l39 391l71 149 q73 -19 84 -94l-52 -521l-41 -37z" />
<glyph unicode=":" horiz-adv-x="335" d="M54 298l15 149h149l-15 -149h-149zM115 894l15 149h149l-15 -149h-149z" />
<glyph unicode=";" horiz-adv-x="335" d="M11 -149l30 298h149l-30 -298l-82 -74zM115 894l15 149h149l-15 -149h-149z" />
<glyph unicode="&#x3c;" horiz-adv-x="688" d="M91 652h205l268 -300l-63 -73h-75zM95 689l410 372h74l48 -72l-327 -300h-205z" />
<glyph unicode="=" horiz-adv-x="819" d="M78 519l82 75h484l67 -75l-82 -74h-484zM108 819l82 75h484l67 -75l-82 -74h-484z" />
<glyph unicode="&#x3e;" horiz-adv-x="688" d="M61 352l328 300h205l-410 -373h-74zM125 989l63 72h75l335 -372h-205z" />
<glyph unicode="?" d="M26 0l15 149h149l-15 -149h-149zM56 298l32 316l40 38l101 -112l-24 -242h-149zM153 1247q26 74 102 94h557l-71 -149h-445zM168 670l81 75h485l67 -75l-82 -74h-484zM739 801l39 391l71 149q73 -19 84 -94l-52 -521l-41 -37z" />
<glyph unicode="@" d="M35 93l155 56h447l41 -149h-559q-73 19 -84 93zM39 130l49 484l40 38l101 -112l-35 -354zM99 726l48 484l143 -56l-35 -353l-123 -112zM153 1247q26 74 102 94h557l-71 -149h-445zM363 389l155 58h149l40 -149l-260 -2q-73 19 -84 93zM367 428l18 186l41 38l101 -112 l-6 -56zM397 726l18 186l144 -56l-6 -55l-123 -112zM419 951q26 74 102 93l205 -1l-15 -149h-149zM704 447l9 93l123 112l33 -38l-22 -223q-26 -74 -102 -93zM739 801l39 391l71 149q73 -19 84 -94l-52 -521l-41 -37z" />
<glyph unicode="A" d="M35 93l53 521l40 38l101 -112l-39 -391l-71 -149q-73 19 -84 93zM99 726l48 484l143 -56l-35 -353l-123 -112zM153 1247q26 74 102 94h557l-71 -149h-445zM168 670l81 75h485l67 -75l-82 -74h-484zM674 149l39 391l123 112l33 -38l-52 -521q-26 -74 -102 -93zM739 801 l39 391l71 149q73 -19 84 -94l-52 -521l-41 -37z" />
<glyph unicode="B" d="M26 0l9 93l155 56h445l67 -75l-82 -74h-594zM39 130l49 484l40 38l101 -112l-35 -354zM99 726l48 484l143 -56l-35 -353l-123 -112zM151 1247l9 94h596l67 -75l-82 -74h-447zM168 670l81 75h485l67 -75l-82 -74h-484zM674 149l39 391l123 112l33 -38l-42 -428l-103 -93z M739 801l39 391l62 55l83 -93l-42 -428l-41 -37z" />
<glyph unicode="C" horiz-adv-x="893" d="M35 93l155 56h503l41 -149h-615q-73 19 -84 93zM39 130l49 484l40 38l101 -112l-35 -354zM99 726l48 484l143 -56l-35 -353l-123 -112zM153 1247q26 74 102 94h613l-71 -149h-501z" />
<glyph unicode="D" d="M26 0l9 93l155 56h445l67 -75l-82 -74h-594zM39 130l49 484l40 38l101 -112l-35 -354zM99 726l48 484l143 -56l-35 -353l-123 -112zM151 1247l9 94h596l67 -75l-82 -74h-447zM674 149l39 391l123 112l33 -38l-42 -428l-103 -93zM739 801l39 391l62 55l83 -93l-42 -428 l-41 -37z" />
<glyph unicode="E" horiz-adv-x="893" d="M35 93l155 56h503l41 -149h-615q-73 19 -84 93zM39 130l49 484l40 38l101 -112l-35 -354zM99 726l48 484l143 -56l-35 -353l-123 -112zM153 1247q26 74 102 94h613l-71 -149h-501zM168 670l81 75h485l67 -75l-82 -74h-484z" />
<glyph unicode="F" horiz-adv-x="893" d="M35 93l53 521l40 38l101 -112l-39 -391l-71 -149q-73 19 -84 93zM99 726l48 484l143 -56l-35 -353l-123 -112zM153 1247q26 74 102 94h613l-71 -149h-501zM168 670l81 75h485l67 -75l-82 -74h-484z" />
<glyph unicode="G" d="M35 93l155 56h447l41 -149h-559q-73 19 -84 93zM39 130l49 484l40 38l101 -112l-35 -354zM99 726l48 484l143 -56l-35 -353l-123 -112zM153 1247q26 74 102 94h613l-71 -149h-501zM484 670l82 75h168l67 -75l-82 -74h-168zM674 149l39 391l123 112l33 -38l-52 -521 q-26 -74 -102 -93z" />
<glyph unicode="H" d="M35 93l53 521l40 38l101 -112l-39 -391l-71 -149q-73 19 -84 93zM97 707l52 522q26 74 102 93l41 -149l-39 -391l-123 -112zM168 670l81 75h485l67 -75l-82 -74h-484zM674 149l39 391l123 112l33 -38l-52 -521q-26 -74 -102 -93zM739 801l39 391l71 149q73 -19 84 -94 l-52 -521l-41 -37z" />
<glyph unicode="I" horiz-adv-x="335" d="M43 168l39 391l123 111l33 -37l-52 -521q-26 -74 -102 -93zM106 801l39 391l71 149q73 -19 84 -94l-52 -521l-41 -37z" />
<glyph unicode="J" d="M35 93l155 56h447l41 -149h-559q-73 19 -84 93zM39 130l49 484l40 38l101 -112l-35 -354zM674 149l39 391l123 112l33 -38l-52 -521q-26 -74 -102 -93zM739 801l39 391l71 149q73 -19 84 -94l-52 -521l-41 -37z" />
<glyph unicode="K" d="M35 93l53 521l40 38l101 -112l-39 -391l-71 -149q-73 19 -84 93zM99 726l52 521q26 74 102 94l41 -149l-39 -391l-123 -112zM168 670l81 75h485l67 -75l-82 -74h-484zM290 782l12 112l491 447q112 0 142 -75l-533 -484h-112zM674 149l39 391l123 112l33 -38l-52 -521 q-26 -74 -102 -93z" />
<glyph unicode="L" d="M35 93l53 521l40 38l101 -112l-39 -391l-71 -149q-73 19 -84 93zM99 726l52 521q26 74 102 94l41 -149l-39 -391l-123 -112zM156 0l71 149h447l143 -56q-26 -74 -102 -93h-559z" />
<glyph unicode="M" d="M35 93l53 521l40 38l101 -112l-39 -391l-71 -149q-73 19 -84 93zM99 726l48 484l143 -56l-35 -353l-123 -112zM153 1247q26 74 102 94h557l-71 -149h-445zM415 726l43 428h149l-43 -428l-82 -74zM674 149l39 391l123 112l33 -38l-52 -521q-26 -74 -102 -93zM739 801 l39 391l71 149q73 -19 84 -94l-52 -521l-41 -37z" />
<glyph unicode="N" d="M35 93l53 521l40 38l101 -112l-39 -391l-71 -149q-73 19 -84 93zM97 707l52 522q26 74 102 93l41 -149l-39 -391l-123 -112zM318 1061l12 112h111l268 -298l-9 -93h-130zM674 149l39 391l123 112l33 -38l-52 -521q-26 -74 -102 -93zM737 782l39 391l71 149q73 -19 84 -93 l-52 -522l-41 -37z" />
<glyph unicode="O" d="M45 186l43 428l40 38l101 -112l-39 -391l-62 -56zM99 726l42 428l103 93l50 -55l-39 -391l-123 -112zM145 74l82 75h410l67 -75l-82 -74h-410zM264 1266l82 75h410l67 -75l-82 -74h-410zM674 149l39 391l123 112l33 -38l-42 -428l-103 -93zM739 801l39 391l62 55l83 -93 l-42 -428l-41 -37z" />
<glyph unicode="P" d="M35 93l53 521l40 38l101 -112l-39 -391l-71 -149q-73 19 -84 93zM99 726l48 484l143 -56l-35 -353l-123 -112zM151 1247l9 94h596l67 -75l-82 -74h-447zM168 670l81 75h485l67 -75l-82 -74h-484zM739 801l39 391l62 55l83 -93l-42 -428l-41 -37z" />
<glyph unicode="Q" horiz-adv-x="986" d="M35 93l155 56h316l134 -149h-521q-73 19 -84 93zM39 130l49 484l40 38l101 -112l-35 -354zM99 726l48 484l143 -56l-35 -353l-123 -112zM153 1247q26 74 102 94h557l-71 -149h-445zM495 223l11 112h112l218 -242l-11 -112h-112zM691 317l22 223l123 112l33 -38l-44 -446z M739 801l39 391l71 149q73 -19 84 -94l-52 -521l-41 -37z" />
<glyph unicode="R" d="M35 93l53 521l40 38l101 -112l-39 -391l-71 -149q-73 19 -84 93zM99 726l48 484l143 -56l-35 -353l-123 -112zM153 1247q26 74 102 94h557l-71 -149h-445zM168 670l81 75h485l67 -75l-82 -74h-484zM257 447l11 112h112l435 -485q-45 -74 -156 -74zM739 801l39 391l71 149 q73 -19 84 -94l-52 -521l-41 -37z" />
<glyph unicode="S" d="M35 93l155 56h447l41 -149h-559q-73 19 -84 93zM99 726l48 484l143 -56l-35 -353l-123 -112zM153 1247q26 74 102 94h594q73 -19 84 -94l-155 -55h-482zM168 670l81 75h485l67 -75l-82 -74h-484zM674 149l39 391l123 112l33 -38l-52 -521q-26 -74 -102 -93z" />
<glyph unicode="T" horiz-adv-x="966" d="M151 1247q26 74 102 94h594q73 -19 84 -94l-155 -55h-482zM356 149l42 428l82 75l67 -75l-48 -484q-26 -74 -102 -93zM417 763l39 391h149l-39 -391l-82 -74z" />
<glyph unicode="U" d="M35 93l155 56h447l41 -149h-559q-73 19 -84 93zM39 130l49 484l40 38l101 -112l-35 -354zM97 707l52 522q26 74 102 93l41 -149l-39 -391l-123 -112zM674 149l39 391l123 112l33 -38l-52 -521q-26 -74 -102 -93zM739 801l39 391l71 149q73 -19 84 -94l-52 -521l-41 -37z " />
<glyph unicode="V" d="M74 484l12 112l41 37l100 -112l194 -298l-23 -223zM97 707l52 522q26 74 102 93l41 -149l-39 -391l-123 -112zM436 0l22 223l253 298l123 112l34 -37l-12 -112zM737 782l39 391l71 149q73 -19 84 -93l-52 -522l-41 -37z" />
<glyph unicode="W" d="M37 93l155 56h445l41 -149h-557q-73 19 -84 93zM39 130l49 484l40 38l101 -112l-35 -354zM99 726l52 521q26 74 102 94l41 -149l-39 -391l-123 -112zM361 186l43 428l82 75l67 -75l-43 -428h-149zM674 149l39 391l123 112l33 -38l-52 -521q-26 -74 -102 -93zM739 801 l39 391l71 149q73 -19 84 -94l-52 -521l-41 -37z" />
<glyph unicode="X" d="M34 74l344 578h84l-21 -201l-266 -451q-111 0 -141 74zM155 1266q45 74 156 75l177 -453l-21 -199h-83zM480 451l21 201h84l229 -578q-45 -74 -157 -74zM506 689l21 201l266 451q112 0 142 -75l-345 -577h-84z" />
<glyph unicode="Y" d="M35 93l155 56h447l41 -149h-559q-73 19 -84 93zM99 726l54 540l143 -56l-41 -409l-123 -112zM168 670l81 75h485l67 -75l-82 -74h-484zM674 149l39 391l123 112l33 -38l-52 -521q-26 -74 -102 -93zM739 801l39 391l71 149q73 -19 84 -94l-52 -521l-41 -37z" />
<glyph unicode="Z" d="M34 74l355 578h112l-11 -112l-315 -540q-111 0 -141 74zM153 1247q26 74 102 94h501l-89 -149h-371zM212 0l90 149h391l41 -149h-522zM486 689l11 112l296 540q112 0 142 -75l-337 -577h-112z" />
<glyph unicode="[" horiz-adv-x="577" d="M37 93l155 56h128l101 -112l-41 -37h-259q-73 19 -84 93zM39 130l49 484l40 38l101 -112l-35 -354zM99 726l48 484l143 -56l-35 -353l-123 -112zM153 1247q26 74 102 94h259l33 -38l-123 -111h-128z" />
<glyph unicode="\" horiz-adv-x="964" d="M153 1266q45 74 156 75l177 -453l-21 -199h-83zM478 451l21 201h84l229 -578q-45 -74 -157 -74z" />
<glyph unicode="]" horiz-adv-x="577" d="M30 37l123 112h93l41 -149h-224zM156 1303l41 38h224l-71 -149h-93zM283 149l39 391l123 112l33 -38l-52 -521q-26 -74 -102 -93zM348 801l39 391l71 149q73 -19 84 -94l-52 -521l-41 -37z" />
<glyph unicode="^" horiz-adv-x="966" d="M115 894l8 74l409 373l-22 -205l-328 -298zM547 1136l21 205l335 -373l-7 -74l-79 -56z" />
<glyph unicode="_" horiz-adv-x="966" d="M35 93l155 56h482l143 -56q-26 -74 -102 -93h-594q-73 19 -84 93z" />
<glyph unicode="`" horiz-adv-x="521" d="M156 1303l26 75h75l218 -242l-8 -75l-76 -18z" />
<glyph unicode="a" d="M35 93l53 521l40 38l101 -112l-39 -391l-71 -149q-73 19 -84 93zM99 726l48 484l143 -56l-35 -353l-123 -112zM153 1247q26 74 102 94h557l-71 -149h-445zM168 670l81 75h485l67 -75l-82 -74h-484zM674 149l39 391l123 112l33 -38l-52 -521q-26 -74 -102 -93zM739 801 l39 391l71 149q73 -19 84 -94l-52 -521l-41 -37z" />
<glyph unicode="b" d="M26 0l9 93l155 56h445l67 -75l-82 -74h-594zM39 130l49 484l40 38l101 -112l-35 -354zM99 726l48 484l143 -56l-35 -353l-123 -112zM151 1247l9 94h596l67 -75l-82 -74h-447zM168 670l81 75h485l67 -75l-82 -74h-484zM674 149l39 391l123 112l33 -38l-42 -428l-103 -93z M739 801l39 391l62 55l83 -93l-42 -428l-41 -37z" />
<glyph unicode="c" horiz-adv-x="893" d="M35 93l155 56h503l41 -149h-615q-73 19 -84 93zM39 130l49 484l40 38l101 -112l-35 -354zM99 726l48 484l143 -56l-35 -353l-123 -112zM153 1247q26 74 102 94h613l-71 -149h-501z" />
<glyph unicode="d" d="M26 0l9 93l155 56h445l67 -75l-82 -74h-594zM39 130l49 484l40 38l101 -112l-35 -354zM99 726l48 484l143 -56l-35 -353l-123 -112zM151 1247l9 94h596l67 -75l-82 -74h-447zM674 149l39 391l123 112l33 -38l-42 -428l-103 -93zM739 801l39 391l62 55l83 -93l-42 -428 l-41 -37z" />
<glyph unicode="e" horiz-adv-x="893" d="M35 93l155 56h503l41 -149h-615q-73 19 -84 93zM39 130l49 484l40 38l101 -112l-35 -354zM99 726l48 484l143 -56l-35 -353l-123 -112zM153 1247q26 74 102 94h613l-71 -149h-501zM168 670l81 75h485l67 -75l-82 -74h-484z" />
<glyph unicode="f" horiz-adv-x="893" d="M35 93l53 521l40 38l101 -112l-39 -391l-71 -149q-73 19 -84 93zM99 726l48 484l143 -56l-35 -353l-123 -112zM153 1247q26 74 102 94h613l-71 -149h-501zM168 670l81 75h485l67 -75l-82 -74h-484z" />
<glyph unicode="g" d="M35 93l155 56h447l41 -149h-559q-73 19 -84 93zM39 130l49 484l40 38l101 -112l-35 -354zM99 726l48 484l143 -56l-35 -353l-123 -112zM153 1247q26 74 102 94h613l-71 -149h-501zM484 670l82 75h168l67 -75l-82 -74h-168zM674 149l39 391l123 112l33 -38l-52 -521 q-26 -74 -102 -93z" />
<glyph unicode="h" d="M35 93l53 521l40 38l101 -112l-39 -391l-71 -149q-73 19 -84 93zM97 707l52 522q26 74 102 93l41 -149l-39 -391l-123 -112zM168 670l81 75h485l67 -75l-82 -74h-484zM674 149l39 391l123 112l33 -38l-52 -521q-26 -74 -102 -93zM739 801l39 391l71 149q73 -19 84 -94 l-52 -521l-41 -37z" />
<glyph unicode="i" horiz-adv-x="335" d="M43 168l39 391l123 111l33 -37l-52 -521q-26 -74 -102 -93zM106 801l39 391l71 149q73 -19 84 -94l-52 -521l-41 -37z" />
<glyph unicode="j" d="M35 93l155 56h447l41 -149h-559q-73 19 -84 93zM39 130l49 484l40 38l101 -112l-35 -354zM674 149l39 391l123 112l33 -38l-52 -521q-26 -74 -102 -93zM739 801l39 391l71 149q73 -19 84 -94l-52 -521l-41 -37z" />
<glyph unicode="k" d="M35 93l53 521l40 38l101 -112l-39 -391l-71 -149q-73 19 -84 93zM99 726l52 521q26 74 102 94l41 -149l-39 -391l-123 -112zM168 670l81 75h485l67 -75l-82 -74h-484zM290 782l12 112l491 447q112 0 142 -75l-533 -484h-112zM674 149l39 391l123 112l33 -38l-52 -521 q-26 -74 -102 -93z" />
<glyph unicode="l" d="M35 93l53 521l40 38l101 -112l-39 -391l-71 -149q-73 19 -84 93zM99 726l52 521q26 74 102 94l41 -149l-39 -391l-123 -112zM156 0l71 149h447l143 -56q-26 -74 -102 -93h-559z" />
<glyph unicode="m" d="M35 93l53 521l40 38l101 -112l-39 -391l-71 -149q-73 19 -84 93zM99 726l48 484l143 -56l-35 -353l-123 -112zM153 1247q26 74 102 94h557l-71 -149h-445zM415 726l43 428h149l-43 -428l-82 -74zM674 149l39 391l123 112l33 -38l-52 -521q-26 -74 -102 -93zM739 801 l39 391l71 149q73 -19 84 -94l-52 -521l-41 -37z" />
<glyph unicode="n" d="M35 93l53 521l40 38l101 -112l-39 -391l-71 -149q-73 19 -84 93zM97 707l52 522q26 74 102 93l41 -149l-39 -391l-123 -112zM318 1061l12 112h111l268 -298l-9 -93h-130zM674 149l39 391l123 112l33 -38l-52 -521q-26 -74 -102 -93zM737 782l39 391l71 149q73 -19 84 -93 l-52 -522l-41 -37z" />
<glyph unicode="o" d="M45 186l43 428l40 38l101 -112l-39 -391l-62 -56zM99 726l42 428l103 93l50 -55l-39 -391l-123 -112zM145 74l82 75h410l67 -75l-82 -74h-410zM264 1266l82 75h410l67 -75l-82 -74h-410zM674 149l39 391l123 112l33 -38l-42 -428l-103 -93zM739 801l39 391l62 55l83 -93 l-42 -428l-41 -37z" />
<glyph unicode="p" d="M35 93l53 521l40 38l101 -112l-39 -391l-71 -149q-73 19 -84 93zM99 726l48 484l143 -56l-35 -353l-123 -112zM151 1247l9 94h596l67 -75l-82 -74h-447zM168 670l81 75h485l67 -75l-82 -74h-484zM739 801l39 391l62 55l83 -93l-42 -428l-41 -37z" />
<glyph unicode="q" horiz-adv-x="986" d="M35 93l155 56h316l134 -149h-521q-73 19 -84 93zM39 130l49 484l40 38l101 -112l-35 -354zM99 726l48 484l143 -56l-35 -353l-123 -112zM153 1247q26 74 102 94h557l-71 -149h-445zM495 223l11 112h112l218 -242l-11 -112h-112zM691 317l22 223l123 112l33 -38l-44 -446z M739 801l39 391l71 149q73 -19 84 -94l-52 -521l-41 -37z" />
<glyph unicode="r" d="M35 93l53 521l40 38l101 -112l-39 -391l-71 -149q-73 19 -84 93zM99 726l48 484l143 -56l-35 -353l-123 -112zM153 1247q26 74 102 94h557l-71 -149h-445zM168 670l81 75h485l67 -75l-82 -74h-484zM257 447l11 112h112l435 -485q-45 -74 -156 -74zM739 801l39 391l71 149 q73 -19 84 -94l-52 -521l-41 -37z" />
<glyph unicode="s" d="M35 93l155 56h447l41 -149h-559q-73 19 -84 93zM99 726l48 484l143 -56l-35 -353l-123 -112zM153 1247q26 74 102 94h594q73 -19 84 -94l-155 -55h-482zM168 670l81 75h485l67 -75l-82 -74h-484zM674 149l39 391l123 112l33 -38l-52 -521q-26 -74 -102 -93z" />
<glyph unicode="t" horiz-adv-x="966" d="M151 1247q26 74 102 94h594q73 -19 84 -94l-155 -55h-482zM356 149l42 428l82 75l67 -75l-48 -484q-26 -74 -102 -93zM417 763l39 391h149l-39 -391l-82 -74z" />
<glyph unicode="u" d="M35 93l155 56h447l41 -149h-559q-73 19 -84 93zM39 130l49 484l40 38l101 -112l-35 -354zM97 707l52 522q26 74 102 93l41 -149l-39 -391l-123 -112zM674 149l39 391l123 112l33 -38l-52 -521q-26 -74 -102 -93zM739 801l39 391l71 149q73 -19 84 -94l-52 -521l-41 -37z " />
<glyph unicode="v" d="M74 484l12 112l41 37l100 -112l194 -298l-23 -223zM97 707l52 522q26 74 102 93l41 -149l-39 -391l-123 -112zM436 0l22 223l253 298l123 112l34 -37l-12 -112zM737 782l39 391l71 149q73 -19 84 -93l-52 -522l-41 -37z" />
<glyph unicode="w" d="M37 93l155 56h445l41 -149h-557q-73 19 -84 93zM39 130l49 484l40 38l101 -112l-35 -354zM99 726l52 521q26 74 102 94l41 -149l-39 -391l-123 -112zM361 186l43 428l82 75l67 -75l-43 -428h-149zM674 149l39 391l123 112l33 -38l-52 -521q-26 -74 -102 -93zM739 801 l39 391l71 149q73 -19 84 -94l-52 -521l-41 -37z" />
<glyph unicode="x" d="M34 74l344 578h84l-21 -201l-266 -451q-111 0 -141 74zM155 1266q45 74 156 75l177 -453l-21 -199h-83zM480 451l21 201h84l229 -578q-45 -74 -157 -74zM506 689l21 201l266 451q112 0 142 -75l-345 -577h-84z" />
<glyph unicode="y" d="M35 93l155 56h447l41 -149h-559q-73 19 -84 93zM99 726l54 540l143 -56l-41 -409l-123 -112zM168 670l81 75h485l67 -75l-82 -74h-484zM674 149l39 391l123 112l33 -38l-52 -521q-26 -74 -102 -93zM739 801l39 391l71 149q73 -19 84 -94l-52 -521l-41 -37z" />
<glyph unicode="z" d="M34 74l355 578h112l-11 -112l-315 -540q-111 0 -141 74zM153 1247q26 74 102 94h501l-89 -149h-371zM212 0l90 149h391l41 -149h-522zM486 689l11 112l296 540q112 0 142 -75l-337 -577h-112z" />
<glyph unicode="{" horiz-adv-x="800" d="M93 670l82 75h130l67 -75l-82 -74h-130zM261 93l154 56h129l100 -112l-41 -37h-259q-72 19 -83 93zM263 130l40 410l123 112l34 -38l-43 -428zM330 801l41 409l143 -56l-43 -428l-41 -37zM376 1247q26 74 102 94h259l34 -38l-123 -111h-129z" />
<glyph unicode="|" horiz-adv-x="335" d="M41 149l104 1043l71 149q73 -19 84 -94l-116 -1154q-26 -74 -102 -93z" />
<glyph unicode="}" horiz-adv-x="800" d="M30 37l123 112h128l143 -56q-26 -74 -102 -93h-259zM156 1303l41 38h259q73 -19 84 -94l-155 -55h-128zM287 186l43 428l41 38l100 -112l-41 -410zM341 726l43 428l154 56l-41 -409l-123 -112zM428 670l82 75h130l67 -75l-81 -74h-131z" />
<glyph unicode="~" horiz-adv-x="1005" d="M108 817l82 75h74l67 -75l-82 -74h-74zM268 931l82 74h74l68 -74l-82 -75h-75zM406 819l82 75h74l67 -75l-82 -74h-74zM542 689l82 74h74l67 -74l-82 -75h-74zM704 819l82 75h74l67 -75l-82 -74h-74z" />
<glyph unicode="&#xa9;" horiz-adv-x="1079" d="M35 93l155 56h558l41 -149h-670q-73 19 -84 93zM39 130l108 1080l143 -56l-96 -968zM153 1247q26 74 102 94h668l-70 -149h-557zM289 391l52 521l143 -56l-41 -409l-71 -149q-72 19 -83 93zM344 950q26 74 103 93h354l-71 -149h-242zM410 298l70 149h112l143 -56 q-26 -74 -102 -93h-223zM786 149l104 1043l71 149q73 -19 83 -94l-115 -1154q-26 -74 -102 -93z" />
<glyph unicode="&#xaa;" d="M35 93l53 521l40 38l101 -112l-39 -391l-71 -149q-73 19 -84 93zM99 726l48 484l143 -56l-35 -353l-123 -112zM153 1247q26 74 102 94h557l-71 -149h-445zM168 670l81 75h485l67 -75l-82 -74h-484zM674 149l39 391l123 112l33 -38l-52 -521q-26 -74 -102 -93zM739 801 l39 391l71 149q73 -19 84 -94l-52 -521l-41 -37z" />
<glyph unicode="&#xad;" horiz-adv-x="819" d="M93 670l82 75h484l67 -75l-82 -74h-484z" />
<glyph unicode="&#xb2;" d="M35 93l155 56h503l41 -149h-615q-73 19 -84 93zM39 130l49 484l40 38l101 -112l-35 -354zM153 1247q26 74 102 94h557l-71 -149h-445zM168 670l81 75h485l67 -75l-82 -74h-484zM739 801l39 391l71 149q73 -19 84 -94l-52 -521l-41 -37z" />
<glyph unicode="&#xb3;" d="M35 93l155 56h447l41 -149h-559q-73 19 -84 93zM153 1247q26 74 102 94h557l-71 -149h-445zM168 670l81 75h485l67 -75l-82 -74h-484zM674 149l39 391l123 112l33 -38l-52 -521q-26 -74 -102 -93zM739 801l39 391l71 149q73 -19 84 -94l-52 -521l-41 -37z" />
<glyph unicode="&#xb9;" horiz-adv-x="335" d="M41 149l39 391l123 112l33 -38l-52 -521q-26 -74 -102 -93zM106 801l39 391l71 149q73 -19 84 -94l-52 -521l-41 -37z" />
<glyph unicode="&#xba;" d="M45 186l43 428l40 38l101 -112l-39 -391l-62 -56zM99 726l42 428l103 93l50 -55l-39 -391l-123 -112zM145 74l82 75h410l67 -75l-82 -74h-410zM264 1266l82 75h410l67 -75l-82 -74h-410zM674 149l39 391l123 112l33 -38l-42 -428l-103 -93zM739 801l39 391l62 55l83 -93 l-42 -428l-41 -37z" />
<glyph unicode="&#xc0;" d="M35 93l53 521l40 38l101 -112l-39 -391l-71 -149q-73 19 -84 93zM99 726l48 484l143 -56l-35 -353l-123 -112zM153 1247q26 74 102 94h557l-71 -149h-445zM168 670l81 75h485l67 -75l-82 -74h-484zM330 1724l26 75h74l218 -243l-8 -74l-76 -19zM674 149l39 391l123 112 l33 -38l-52 -521q-26 -74 -102 -93zM739 801l39 391l71 149q73 -19 84 -94l-52 -521l-41 -37z" />
<glyph unicode="&#xc2;" d="M35 93l53 521l40 38l101 -112l-39 -391l-71 -149q-73 19 -84 93zM99 726l48 484l143 -56l-35 -353l-123 -112zM153 1247q26 74 102 94h557l-71 -149h-445zM168 670l81 75h485l67 -75l-82 -74h-484zM181 1519l7 75l410 372l-23 -205l-327 -298zM613 1761l20 205l335 -372 l-7 -75l-78 -56zM674 149l39 391l123 112l33 -38l-52 -521q-26 -74 -102 -93zM739 801l39 391l71 149q73 -19 84 -94l-52 -521l-41 -37z" />
<glyph unicode="&#xc3;" d="M35 93l53 521l40 38l101 -112l-39 -391l-71 -149q-73 19 -84 93zM99 726l48 484l143 -56l-35 -353l-123 -112zM153 1247q26 74 102 94h557l-71 -149h-445zM168 670l81 75h485l67 -75l-82 -74h-484zM175 1666l82 75h74l67 -75l-81 -74h-75zM335 1780l82 74h75l67 -74 l-82 -75h-75zM473 1668l82 75h74l67 -75l-82 -74h-74zM609 1538l82 74h74l67 -74l-82 -75h-74zM674 149l39 391l123 112l33 -38l-52 -521q-26 -74 -102 -93zM739 801l39 391l71 149q73 -19 84 -94l-52 -521l-41 -37zM771 1668l82 75h74l67 -75l-82 -74h-74z" />
<glyph unicode="&#xc8;" horiz-adv-x="893" d="M35 93l155 56h503l41 -149h-615q-73 19 -84 93zM39 130l49 484l40 38l101 -112l-35 -354zM99 726l48 484l143 -56l-35 -353l-123 -112zM153 1247q26 74 102 94h613l-71 -149h-501zM168 670l81 75h485l67 -75l-82 -74h-484zM339 1724l26 75h74l218 -243l-7 -74l-77 -19z " />
<glyph unicode="&#xca;" horiz-adv-x="893" d="M35 93l155 56h503l41 -149h-615q-73 19 -84 93zM39 130l49 484l40 38l101 -112l-35 -354zM99 726l48 484l143 -56l-35 -353l-123 -112zM153 1247q26 74 102 94h613l-71 -149h-501zM168 670l81 75h485l67 -75l-82 -74h-484zM190 1519l7 75l410 372l-22 -205l-328 -298z M622 1761l20 205l335 -372l-7 -75l-78 -56z" />
<glyph unicode="&#xcc;" horiz-adv-x="335" d="M-6 1724l26 75h75l218 -243l-8 -74l-76 -19zM43 168l39 391l123 111l33 -37l-52 -521q-26 -74 -102 -93zM106 801l39 391l71 149q73 -19 84 -94l-52 -521l-41 -37z" />
<glyph unicode="&#xce;" horiz-adv-x="335" d="M-156 1519l7 75l410 372l-23 -205l-327 -298zM43 168l39 391l123 111l33 -37l-52 -521q-26 -74 -102 -93zM106 801l39 391l71 149q73 -19 84 -94l-52 -521l-41 -37zM276 1761l20 205l335 -372l-7 -75l-78 -56z" />
<glyph unicode="&#xd1;" d="M35 93l53 521l40 38l101 -112l-39 -391l-71 -149q-73 19 -84 93zM97 707l52 522q26 74 102 93l41 -149l-39 -391l-123 -112zM175 1666l82 75h74l67 -75l-81 -74h-75zM318 1061l12 112h111l268 -298l-9 -93h-130zM335 1780l82 74h75l67 -74l-82 -75h-75zM473 1668l82 75 h74l67 -75l-82 -74h-74zM609 1538l82 74h74l67 -74l-82 -75h-74zM674 149l39 391l123 112l33 -38l-52 -521q-26 -74 -102 -93zM737 782l39 391l71 149q73 -19 84 -93l-52 -522l-41 -37zM771 1668l82 75h74l67 -75l-82 -74h-74z" />
<glyph unicode="&#xd2;" d="M45 186l43 428l40 38l101 -112l-39 -391l-62 -56zM99 726l42 428l103 93l50 -55l-39 -391l-123 -112zM145 74l82 75h410l67 -75l-82 -74h-410zM264 1266l82 75h410l67 -75l-82 -74h-410zM330 1724l26 75h74l218 -243l-8 -74l-76 -19zM674 149l39 391l123 112l33 -38 l-42 -428l-103 -93zM739 801l39 391l62 55l83 -93l-42 -428l-41 -37z" />
<glyph unicode="&#xd4;" d="M45 186l43 428l40 38l101 -112l-39 -391l-62 -56zM99 726l42 428l103 93l50 -55l-39 -391l-123 -112zM145 74l82 75h410l67 -75l-82 -74h-410zM179 1519l7 75l410 372l-23 -205l-327 -298zM264 1266l82 75h410l67 -75l-82 -74h-410zM611 1761l20 205l335 -372l-7 -75 l-78 -56zM674 149l39 391l123 112l33 -38l-42 -428l-103 -93zM739 801l39 391l62 55l83 -93l-42 -428l-41 -37z" />
<glyph unicode="&#xd5;" d="M45 186l43 428l40 38l101 -112l-39 -391l-62 -56zM99 726l42 428l103 93l50 -55l-39 -391l-123 -112zM145 74l82 75h410l67 -75l-82 -74h-410zM175 1666l82 75h74l67 -75l-81 -74h-75zM264 1266l82 75h410l67 -75l-82 -74h-410zM335 1780l82 74h75l67 -74l-82 -75h-75z M473 1668l82 75h74l67 -75l-82 -74h-74zM609 1538l82 74h74l67 -74l-82 -75h-74zM674 149l39 391l123 112l33 -38l-42 -428l-103 -93zM739 801l39 391l62 55l83 -93l-42 -428l-41 -37zM771 1668l82 75h74l67 -75l-82 -74h-74z" />
<glyph unicode="&#xd9;" d="M35 93l155 56h447l41 -149h-559q-73 19 -84 93zM39 130l49 484l40 38l101 -112l-35 -354zM97 707l52 522q26 74 102 93l41 -149l-39 -391l-123 -112zM627 1724l26 75h75l218 -243l-8 -74l-76 -19zM674 149l39 391l123 112l33 -38l-52 -521q-26 -74 -102 -93zM739 801 l39 391l71 149q73 -19 84 -94l-52 -521l-41 -37z" />
<glyph unicode="&#xdb;" d="M35 93l155 56h447l41 -149h-559q-73 19 -84 93zM39 130l49 484l40 38l101 -112l-35 -354zM97 707l52 522q26 74 102 93l41 -149l-39 -391l-123 -112zM477 1519l7 75l410 372l-23 -205l-327 -298zM674 149l39 391l123 112l33 -38l-52 -521q-26 -74 -102 -93zM739 801 l39 391l71 149q73 -19 84 -94l-52 -521l-41 -37zM909 1761l20 205l335 -372l-7 -75l-78 -56z" />
<glyph unicode="&#xe0;" d="M35 93l53 521l40 38l101 -112l-39 -391l-71 -149q-73 19 -84 93zM99 726l48 484l143 -56l-35 -353l-123 -112zM153 1247q26 74 102 94h557l-71 -149h-445zM168 670l81 75h485l67 -75l-82 -74h-484zM330 1724l26 75h74l218 -243l-8 -74l-76 -19zM674 149l39 391l123 112 l33 -38l-52 -521q-26 -74 -102 -93zM739 801l39 391l71 149q73 -19 84 -94l-52 -521l-41 -37z" />
<glyph unicode="&#xe2;" d="M35 93l53 521l40 38l101 -112l-39 -391l-71 -149q-73 19 -84 93zM99 726l48 484l143 -56l-35 -353l-123 -112zM153 1247q26 74 102 94h557l-71 -149h-445zM168 670l81 75h485l67 -75l-82 -74h-484zM181 1519l7 75l410 372l-23 -205l-327 -298zM613 1761l20 205l335 -372 l-7 -75l-78 -56zM674 149l39 391l123 112l33 -38l-52 -521q-26 -74 -102 -93zM739 801l39 391l71 149q73 -19 84 -94l-52 -521l-41 -37z" />
<glyph unicode="&#xe3;" d="M35 93l53 521l40 38l101 -112l-39 -391l-71 -149q-73 19 -84 93zM99 726l48 484l143 -56l-35 -353l-123 -112zM153 1247q26 74 102 94h557l-71 -149h-445zM168 670l81 75h485l67 -75l-82 -74h-484zM175 1666l82 75h74l67 -75l-81 -74h-75zM335 1780l82 74h75l67 -74 l-82 -75h-75zM473 1668l82 75h74l67 -75l-82 -74h-74zM609 1538l82 74h74l67 -74l-82 -75h-74zM674 149l39 391l123 112l33 -38l-52 -521q-26 -74 -102 -93zM739 801l39 391l71 149q73 -19 84 -94l-52 -521l-41 -37zM771 1668l82 75h74l67 -75l-82 -74h-74z" />
<glyph unicode="&#xe8;" horiz-adv-x="893" d="M35 93l155 56h503l41 -149h-615q-73 19 -84 93zM39 130l49 484l40 38l101 -112l-35 -354zM99 726l48 484l143 -56l-35 -353l-123 -112zM153 1247q26 74 102 94h613l-71 -149h-501zM168 670l81 75h485l67 -75l-82 -74h-484zM339 1724l26 75h74l218 -243l-7 -74l-77 -19z " />
<glyph unicode="&#xea;" horiz-adv-x="893" d="M35 93l155 56h503l41 -149h-615q-73 19 -84 93zM39 130l49 484l40 38l101 -112l-35 -354zM99 726l48 484l143 -56l-35 -353l-123 -112zM153 1247q26 74 102 94h613l-71 -149h-501zM168 670l81 75h485l67 -75l-82 -74h-484zM190 1519l7 75l410 372l-22 -205l-328 -298z M622 1761l20 205l335 -372l-7 -75l-78 -56z" />
<glyph unicode="&#xec;" horiz-adv-x="335" d="M-6 1724l26 75h75l218 -243l-8 -74l-76 -19zM43 168l39 391l123 111l33 -37l-52 -521q-26 -74 -102 -93zM106 801l39 391l71 149q73 -19 84 -94l-52 -521l-41 -37z" />
<glyph unicode="&#xee;" horiz-adv-x="335" d="M-156 1519l7 75l410 372l-23 -205l-327 -298zM43 168l39 391l123 111l33 -37l-52 -521q-26 -74 -102 -93zM106 801l39 391l71 149q73 -19 84 -94l-52 -521l-41 -37zM276 1761l20 205l335 -372l-7 -75l-78 -56z" />
<glyph unicode="&#xf1;" d="M35 93l53 521l40 38l101 -112l-39 -391l-71 -149q-73 19 -84 93zM97 707l52 522q26 74 102 93l41 -149l-39 -391l-123 -112zM173 1666l82 75h75l67 -75l-82 -74h-75zM318 1061l12 112h111l268 -298l-9 -93h-130zM333 1780l82 74h75l67 -74l-82 -75h-75zM471 1668l82 75 h74l67 -75l-81 -74h-75zM607 1538l82 74h74l67 -74l-82 -75h-74zM674 149l39 391l123 112l33 -38l-52 -521q-26 -74 -102 -93zM737 782l39 391l71 149q73 -19 84 -93l-52 -522l-41 -37zM769 1668l82 75h74l67 -75l-82 -74h-74z" />
<glyph unicode="&#xf2;" d="M45 186l43 428l40 38l101 -112l-39 -391l-62 -56zM99 726l42 428l103 93l50 -55l-39 -391l-123 -112zM145 74l82 75h410l67 -75l-82 -74h-410zM264 1266l82 75h410l67 -75l-82 -74h-410zM330 1724l26 75h74l218 -243l-8 -74l-76 -19zM674 149l39 391l123 112l33 -38 l-42 -428l-103 -93zM739 801l39 391l62 55l83 -93l-42 -428l-41 -37z" />
<glyph unicode="&#xf4;" d="M45 186l43 428l40 38l101 -112l-39 -391l-62 -56zM99 726l42 428l103 93l50 -55l-39 -391l-123 -112zM145 74l82 75h410l67 -75l-82 -74h-410zM179 1519l7 75l410 372l-23 -205l-327 -298zM264 1266l82 75h410l67 -75l-82 -74h-410zM611 1761l20 205l335 -372l-7 -75 l-78 -56zM674 149l39 391l123 112l33 -38l-42 -428l-103 -93zM739 801l39 391l62 55l83 -93l-42 -428l-41 -37z" />
<glyph unicode="&#xf5;" d="M45 186l43 428l40 38l101 -112l-39 -391l-62 -56zM99 726l42 428l103 93l50 -55l-39 -391l-123 -112zM145 74l82 75h410l67 -75l-82 -74h-410zM175 1666l82 75h74l67 -75l-81 -74h-75zM264 1266l82 75h410l67 -75l-82 -74h-410zM335 1780l82 74h75l67 -74l-82 -75h-75z M473 1668l82 75h74l67 -75l-82 -74h-74zM609 1538l82 74h74l67 -74l-82 -75h-74zM674 149l39 391l123 112l33 -38l-42 -428l-103 -93zM739 801l39 391l62 55l83 -93l-42 -428l-41 -37zM771 1668l82 75h74l67 -75l-82 -74h-74z" />
<glyph unicode="&#xf9;" d="M35 93l155 56h447l41 -149h-559q-73 19 -84 93zM39 130l49 484l40 38l101 -112l-35 -354zM97 707l52 522q26 74 102 93l41 -149l-39 -391l-123 -112zM627 1724l26 75h75l218 -243l-8 -74l-76 -19zM674 149l39 391l123 112l33 -38l-52 -521q-26 -74 -102 -93zM739 801 l39 391l71 149q73 -19 84 -94l-52 -521l-41 -37z" />
<glyph unicode="&#xfb;" d="M35 93l155 56h447l41 -149h-559q-73 19 -84 93zM39 130l49 484l40 38l101 -112l-35 -354zM97 707l52 522q26 74 102 93l41 -149l-39 -391l-123 -112zM477 1519l7 75l410 372l-23 -205l-327 -298zM674 149l39 391l123 112l33 -38l-52 -521q-26 -74 -102 -93zM739 801 l39 391l71 149q73 -19 84 -94l-52 -521l-41 -37zM909 1761l20 205l335 -372l-7 -75l-78 -56z" />
<glyph unicode="&#x152;" horiz-adv-x="1861" d="M45 186l43 428l40 38l101 -112l-39 -391l-62 -56zM99 726l42 428l103 93l50 -55l-39 -391l-123 -112zM145 74l82 75h410l67 -75l-82 -74h-410zM264 1266l82 75h410l67 -75l-82 -74h-410zM674 149l39 391l123 112l33 -38l-42 -428l-103 -93zM739 801l39 391l62 55l83 -93 l-42 -428l-41 -37zM1004 93l154 56h503l41 -149h-615q-72 19 -83 93zM1007 130l49 484l41 38l100 -112l-35 -354zM1067 726l48 484l144 -56l-36 -353l-123 -112zM1121 1247q26 74 102 94h613l-71 -149h-501zM1136 670l82 75h484l67 -75l-82 -74h-484z" />
<glyph unicode="&#x153;" horiz-adv-x="1861" d="M45 186l43 428l40 38l101 -112l-39 -391l-62 -56zM99 726l42 428l103 93l50 -55l-39 -391l-123 -112zM145 74l82 75h410l67 -75l-82 -74h-410zM264 1266l82 75h410l67 -75l-82 -74h-410zM674 149l39 391l123 112l33 -38l-42 -428l-103 -93zM739 801l39 391l62 55l83 -93 l-42 -428l-41 -37zM1004 93l154 56h503l41 -149h-615q-72 19 -83 93zM1007 130l49 484l41 38l100 -112l-35 -354zM1067 726l48 484l144 -56l-36 -353l-123 -112zM1121 1247q26 74 102 94h613l-71 -149h-501zM1136 670l82 75h484l67 -75l-82 -74h-484z" />
<glyph unicode="&#x2c6;" horiz-adv-x="966" d="M115 894l8 74l409 373l-22 -205l-328 -298zM547 1136l21 205l335 -373l-7 -74l-79 -56z" />
<glyph unicode="&#x2dc;" horiz-adv-x="558" d="M-376 326l82 74h74l67 -74l-82 -75h-74zM-216 439l82 75h74l67 -75l-81 -74h-75zM-78 328l82 74h74l67 -74l-82 -75h-74zM58 197l82 75h74l67 -75l-82 -74h-74zM220 328l82 74h74l67 -74l-82 -75h-74z" />
<glyph unicode="&#x2013;" horiz-adv-x="1005" d="M93 670l82 75h670l67 -75l-82 -74h-670z" />
<glyph unicode="&#x2014;" horiz-adv-x="1079" d="M93 670l82 75h745l67 -75l-82 -74h-745z" />
<glyph unicode="&#x2018;" horiz-adv-x="335" d="M123 968l30 298l82 75l67 -75l-30 -298h-149z" />
<glyph unicode="&#x2019;" horiz-adv-x="335" d="M130 1043l30 298h149l-30 -298l-82 -75z" />
<glyph unicode="&#x201c;" horiz-adv-x="633" d="M123 970l30 298l82 74l67 -74l-30 -298h-149zM421 968l30 298l81 75l68 -75l-30 -298h-149z" />
<glyph unicode="&#x201d;" horiz-adv-x="634" d="M130 1043l30 298h149l-30 -298l-82 -75zM430 1044l30 298h149l-30 -298l-82 -74z" />
<glyph unicode="&#x2022;" horiz-adv-x="726" d="M95 680q11 112 98.5 191t199.5 79t182 -80q61 -68 61 -161q0 -15 -1 -29q-11 -112 -97.5 -191t-198.5 -79t-184 79q-62 68 -62 161q0 15 2 30z" />
<glyph unicode="&#x2026;" horiz-adv-x="1005" d="M26 0l15 149h149l-15 -149h-149zM361 0l15 149h149l-15 -149h-149zM696 0l15 149h149l-15 -149h-149z" />
<glyph unicode="&#x2039;" horiz-adv-x="688" d="M91 652h205l268 -300l-63 -73h-75zM95 689l410 372h74l48 -72l-327 -300h-205z" />
<glyph unicode="&#x203a;" horiz-adv-x="688" d="M61 352l328 300h205l-410 -373h-74zM125 989l63 72h75l335 -372h-205z" />
<glyph unicode="&#x2122;" horiz-adv-x="1934" d="M151 1247q26 74 102 94h594q73 -19 84 -94l-155 -55h-482zM356 149l42 428l82 75l67 -75l-48 -484q-26 -74 -102 -93zM417 763l39 391h149l-39 -391l-82 -74zM1002 93l52 521l41 38l100 -112l-39 -391l-71 -149q-72 19 -83 93zM1065 726l48 484l144 -56l-36 -353 l-123 -112zM1119 1247q26 74 102 94h557l-71 -149h-445zM1381 726l43 428h149l-43 -428l-82 -74zM1640 149l39 391l123 112l34 -38l-52 -521q-26 -74 -103 -93zM1705 801l40 391l70 149q73 -19 84 -94l-52 -521l-41 -37z" />
<glyph unicode="&#xe000;" horiz-adv-x="1340" d="M0 1340h1340v-1340h-1340v1340z" />
<glyph unicode="&#xfb01;" horiz-adv-x="1228" d="M35 93l53 521l40 38l101 -112l-39 -391l-71 -149q-73 19 -84 93zM99 726l48 484l143 -56l-35 -353l-123 -112zM153 1247q26 74 102 94h613l-71 -149h-501zM168 670l81 75h485l67 -75l-82 -74h-484zM936 168l40 391l122 111l34 -37l-52 -521q-26 -74 -103 -93zM1000 801 l39 391l71 149q73 -19 83 -94l-52 -521l-41 -37z" />
<glyph unicode="&#xfb02;" horiz-adv-x="1861" d="M35 93l53 521l40 38l101 -112l-39 -391l-71 -149q-73 19 -84 93zM99 726l48 484l143 -56l-35 -353l-123 -112zM153 1247q26 74 102 94h613l-71 -149h-501zM168 670l81 75h485l67 -75l-82 -74h-484zM929 93l52 521l41 38l101 -112l-39 -391l-71 -149q-73 19 -84 93z M992 726l52 521q26 74 103 94l41 -149l-39 -391l-123 -112zM1050 0l71 149h447l143 -56q-26 -74 -102 -93h-559z" />
<glyph unicode="&#xfb03;" horiz-adv-x="2122" d="M35 93l53 521l40 38l101 -112l-39 -391l-71 -149q-73 19 -84 93zM99 726l48 484l143 -56l-35 -353l-123 -112zM153 1247q26 74 102 94h613l-71 -149h-501zM168 670l81 75h485l67 -75l-82 -74h-484zM929 93l52 521l41 38l101 -112l-39 -391l-71 -149q-73 19 -84 93z M992 726l49 484l143 -56l-35 -353l-123 -112zM1046 1247q26 74 103 94h612l-70 -149h-501zM1061 670l82 75h484l67 -75l-82 -74h-484zM1830 168l39 391l123 111l34 -37l-52 -521q-26 -74 -103 -93zM1893 801l40 391l70 149q73 -19 84 -94l-52 -521l-41 -37z" />
<glyph unicode="&#xfb04;" horiz-adv-x="2755" d="M35 93l53 521l40 38l101 -112l-39 -391l-71 -149q-73 19 -84 93zM99 726l48 484l143 -56l-35 -353l-123 -112zM153 1247q26 74 102 94h613l-71 -149h-501zM168 670l81 75h485l67 -75l-82 -74h-484zM929 93l52 521l41 38l101 -112l-39 -391l-71 -149q-73 19 -84 93z M992 726l49 484l143 -56l-35 -353l-123 -112zM1046 1247q26 74 103 94h612l-70 -149h-501zM1061 670l82 75h484l67 -75l-82 -74h-484zM1823 93l52 521l41 38l100 -112l-39 -391l-70 -149q-73 19 -84 93zM1886 726l52 521q26 74 103 94l41 -149l-40 -391l-122 -112zM1944 0 l70 149h447l144 -56q-26 -74 -103 -93h-558z" />
</font>
</defs>
</svg>
